如花高清MTV论坛Ⅱ

?找回密码
?立即注册
搜索
热搜: 高清 VOB HD
查看: 736|回复: 17
打印 上一主题 下一主题

[高清MV] [百度]张靓颖 - Fighting Shadows(Vimeo)[MOV][2.65G]

[复制链接]
跳转到指定楼层
楼主
发表于 2016-12-15 14:50:26 | 只看该作者 回帖奖励 |倒序浏览红包免费领取

立即注册,回复帖子下载更多高清MTV!

您需要 登录 才可以下载或查看,没有帐号?立即注册

x
本帖最后由 爱上高清SL 于 2017-1-18 16:46 编辑


C:\Users\Administrator\Desktop\张靓颖 - Fighting Shadows(Vimeo).mov
? ?General
? ?? ?Complete name : C:\Users\Administrator\Desktop\张靓颖 - Fighting Shadows(Vimeo).mov
? ?? ?Format : MPEG-4
? ?? ?Format profile : QuickTime
? ?? ?Codec ID : qt? ?2005.03 (qt??)
? ?? ?File size : 2.65 GiB
? ?? ?Duration : 3 min 16 s
? ?? ?Overall bit rate mode : Variable
? ?? ?Overall bit rate : 116 Mb/s
? ?? ?Encoded date : UTC 2017-01-16 04:54:58
? ?? ?Tagged date : UTC 2017-01-16 05:09:00
? ?? ?Writing library : Apple QuickTime
? ?Video #1
? ?? ?ID : 1
? ?? ?Format : AVC
? ?? ?Format/Info : Advanced Video Codec
? ?? ?Format profile : [email?protected]
? ?? ?Format settings, CABAC : No
? ?? ?Format settings, ReFrames : 2 frames
? ?? ?Format settings, GOP : N=1
? ?? ?Codec ID : avc1
? ?? ?Codec ID/Info : Advanced Video Coding
? ?? ?Duration : 3 min 16 s
? ?? ?Bit rate mode : Variable
? ?? ?Bit rate : 114 Mb/s
? ?? ?Width : 1 920 pixels
? ?? ?Height : 1 080 pixels
? ?? ?Display aspect ratio : 16:9
? ?? ?Frame rate mode : Constant
? ?? ?Frame rate : 24.000 FPS
? ?? ?Color space : YUV
? ?? ?Chroma subsampling : 4:2:0
? ?? ?Bit depth : 8 bits
? ?? ?Scan type : Progressive
? ?? ?Bits/(Pixel*Frame) : 2.284
? ?? ?Stream size : 2.62 GiB (99%)
? ?? ?Title : 苹果视频媒体处理程序 / Apple 替身数据处理程序
? ?? ?Language : English
? ?? ?Encoded date : UTC 2017-01-16 04:54:58
? ?? ?Tagged date : UTC 2017-01-16 05:09:00
? ?? ?Color range : Limited
? ?? ?Color primaries : BT.709
? ?? ?Transfer characteristics : BT.709
? ?? ?Matrix coefficients : BT.709
? ?Audio #2
? ?? ?ID : 2
? ?? ?Format : PCM
? ?? ?Format settings, Endianness : Big
? ?? ?Format settings, Sign : Signed
? ?? ?Codec ID : twos
? ?? ?Duration : 3 min 16 s
? ?? ?Bit rate mode : Constant
? ?? ?Bit rate : 1 536 kb/s
? ?? ?Channel(s) : 2 channels
? ?? ?Channel positions : Front: L R
? ?? ?Sampling rate : 48.0 kHz
? ?? ?Bit depth : 16 bits
? ?? ?Stream size : 36.0 MiB (1%)
? ?? ?Title : 苹果声频媒体处理程序 / Apple 替身数据处理程序
? ?? ?Language : English
? ?? ?Encoded date : UTC 2017-01-16 04:54:58
? ?? ?Tagged date : UTC 2017-01-16 05:09:00

红包免费领取,如果您要查看本帖隐藏内容请回复


评分

参与人数 1爱乐币 +5 活跃度 +1 收起 理由
admin + 5 + 1 感谢您的支持!

查看全部评分

沙发
发表于 2016-12-16 10:27:10 | 只看该作者
张靓颖怎么发布在欧美版块
板凳
?楼主| 发表于 2016-12-16 10:30:10 | 只看该作者
admin 发表于 2016-12-16 10:27
张靓颖怎么发布在欧美版块

汗 因为这首歌是英文歌 虽说张靓颖是中国人 如果发错了 劳烦版主给挪到华语版块好了
地板
发表于 2016-12-16 10:31:24 | 只看该作者
爱上高清SL 发表于 2016-12-16 10:30
汗 因为这首歌是英文歌 虽说张靓颖是中国人 如果发错了 劳烦版主给挪到华语版块好了 ...

你想放这就放这吧
5#
发表于 2017-9-24 13:39:09 | 只看该作者
感谢楼主分享
6#
发表于 2017-12-13 08:03:40 | 只看该作者
提示: 作者被禁止或删除 内容自动屏蔽
7#
发表于 2018-2-11 22:16:28 | 只看该作者
张靓颖怎么发布在欧美版块
9#
发表于 2018-6-29 21:50:50 | 只看该作者
感谢楼主分享
10#
发表于 2018-7-3 11:27:17 | 只看该作者
这首好听,谢谢分享
11#
发表于 2018-7-14 21:39:35 | 只看该作者
经典,感谢楼主分享!!!!!
12#
发表于 2018-7-21 10:45:36 | 只看该作者
这个没有看过。
14#
发表于 2019-5-3 17:54:06 | 只看该作者
谢谢楼主分享,喜欢靓颖
17#
发表于 2019-8-23 22:28:46 | 只看该作者
谢谢楼主分享
您需要登录后才可以回帖 登录 | 立即注册

本版积分规则

QQ|Archiver|手机版|小黑屋|如花高清MTV论坛Ⅱ

GMT+8, 2019-9-19 12:43 , Processed in 0.055470 second(s), 25 queries .

Powered by Discuz! X3.4

? 2001-2017 Comsenz Inc.

快速回复 返回顶部 返回列表